Genre Biography, Drama, History
Plot South African journalist Donald Woods is forced to flee the country, after attempting to investigate the death in custody of his friend, the black...
Actors Josette Simon, Wabei Siyolwe, John Matshikiza, Juanita Waterman, Evelyn Sithole, Xoliswa Sithole, James Coine, Kevin Kline, Kevin McNally, Albert Ndinda, Andrew Whaley, Shelley Borkum, Denzel Washington, Penelope Wilton, Kate Hardie

Code:
http://www.imdb.com/title/tt0092804/
Code:
Format                                   : Matroska
Format version                           : Version 4 / Version 2
File size                                : 3.03 GiB
Duration                                 : 2h 37mn
Overall bit rate                         : 2 752 Kbps
Movie name                               : Cry.Freedom.1987.720p.BluRay.x264-x0r
Encoded date                             : UTC 2019-02-10 20:26:55
Writing application                      : mkvmerge v7.7.0 ('Six Voices') 64bit built on Mar  1 2015 01:50:05
Writing library                          : libebml v1.3.1 + libmatroska v1.4.2

Video
ID                                       : 1
Format                                   : AVC
Format/Info                              : Advanced Video Codec
Format profile                           : [email protected]
Format settings, CABAC                   : Yes
Format settings, ReFrames                : 8 frames
Codec ID                                 : V_MPEG4/ISO/AVC
Duration                                 : 2h 37mn
Bit rate                                 : 2 560 Kbps
Width                                    : 1 280 pixels
Height                                   : 720 pixels
Display aspect ratio                     : 16:9
Frame rate mode                          : Constant
Frame rate                               : 23.976 fps
Color space                              : YUV
Chroma subsampling                       : 4:2:0
Bit depth                                : 8 bits
Scan type                                : Progressive
Bits/(Pixel*Frame)                       : 0.116
Stream size                              : 2.82 GiB (93%)
Writing library                          : x264 core 148 r2643 5c65704
Encoding settings                        : cabac=1 / ref=8 / deblock=1:-2:-2 / analyse=0x3:0x133 / me=umh / subme=9 / psy=1 / psy_rd=1.00:0.25 / mixed_ref=1 / me_range=24 / chroma_me=1 / trellis=2 / 8x8dct=1 / cqm=0 / deadzone=21,11 / fast_pskip=1 / chroma_qp_offset=-4 / threads=12 / lookahead_threads=1 / sliced_threads=0 / nr=0 / decimate=1 / interlaced=0 / bluray_compat=0 / constrained_intra=0 / bframes=4 / b_pyramid=2 / b_adapt=2 / b_bias=0 / direct=3 / weightb=1 / open_gop=0 / weightp=2 / keyint=240 / keyint_min=24 / scenecut=40 / intra_refresh=0 / rc_lookahead=40 / rc=2pass / mbtree=1 / bitrate=2560 / ratetol=1.0 / qcomp=0.60 / qpmin=0 / qpmax=69 / qpstep=4 / cplxblur=20.0 / qblur=0.5 / vbv_maxrate=20000 / vbv_bufsize=25000 / nal_hrd=none / filler=0 / ip_ratio=1.40 / aq=1:1.00
Language                                 : English
Default                                  : Yes
Forced                                   : No
Color range                              : Limited
Color primaries                          : BT.709
Transfer characteristics                 : BT.709
Matrix coefficients                      : BT.709

Audio
ID                                       : 2
Format                                   : AC-3
Format/Info                              : Audio Coding 3
Mode extension                           : CM (complete main)
Format settings, Endianness              : Big
Codec ID                                 : A_AC3
Duration                                 : 2h 37mn
Bit rate mode                            : Constant
Bit rate                                 : 192 Kbps
Channel(s)                               : 2 channels
Channel positions                        : Front: L R
Sampling rate                            : 48.0 KHz
Frame rate                               : 31.250 fps (1536 spf)
Compression mode                         : Lossy
Stream size                              : 216 MiB (7%)
Title                                    : Stereo
Language                                 : English
Default                                  : Yes
Forced                                   : No

Text
ID                                       : 3
Format                                   : UTF-8
Codec ID                                 : S_TEXT/UTF8
Codec ID/Info                            : UTF-8 Plain Text
Duration                                 : 2h 26mn
Bit rate                                 : 55 bps
Count of elements                        : 1365
Stream size                              : 58.9 KiB (0%)
Language                                 : English
Default                                  : Yes
Forced                                   : No
Code:
https://rapidgator.net/file/2d3c3d4fb6c5828dd151cf6731936160/Cry.Freedom.1987.720p.BluRay.x264-x0r.part1.rar.html
https://rapidgator.net/file/31cf51ff98c41f454a6bca1c69cd1e1b/Cry.Freedom.1987.720p.BluRay.x264-x0r.part2.rar.html