Quoted Message
Phil Coulson (Clark Gregg, reprising his role from "The Avengers" and "Iron Man" ) heads an elite team of fellow agents with the worldwide law-enforcement organization known as SHIELD (Strategic Homeland Intervention Enforcement and Logistics Division), as they investigate strange occurrences around the globe. Its members -- each of whom brings a specialty to the group -- work with Coulson to protect those who cannot protect themselves from extraordinary and inconceivable threats, including a formidable group known as Hydra.
Code:
 https://www.imdb.com/title/tt2364582/
Code:
Format version                           : Version 2
File size                                : 1 003 MiB
Duration                                 : 43 min 10 s
Overall bit rate                         : 3 248 kb/s
Movie name                               : Marvels.Agents.of.S.H.I.E.L.D.S04E01.The.Ghost.BRRip.1080p.DD5.1.H265-d3g
Encoded date                             : UTC 2018-07-23 13:34:32
Writing application                      : DVDFab 10.0.9.2
Writing library                          : libebml v1.3.4 + libmatroska v1.4.5

Video
ID                                       : 1
Format                                   : HEVC
Format/Info                              : High Efficiency Video Coding
Format profile                           : [email protected]@Main
Codec ID                                 : V_MPEGH/ISO/HEVC
Duration                                 : 43 min 2 s
Bit rate                                 : 2 795 kb/s
Width                                    : 1 920 pixels
Height                                   : 1 080 pixels
Display aspect ratio                     : 16:9
Frame rate mode                          : Constant
Frame rate                               : 23.976 (24000/1001) FPS
Color space                              : YUV
Chroma subsampling                       : 4:2:0
Bit depth                                : 8 bits
Bits/(Pixel*Frame)                       : 0.056
Stream size                              : 860 MiB (86%)
Default                                  : Yes
Forced                                   : No
Color range                              : Limited
Color primaries                          : BT.709
Transfer characteristics                 : BT.709
Matrix coefficients                      : BT.709

Audio
ID                                       : 2
Format                                   : AC-3
Format/Info                              : Audio Coding 3
Codec ID                                 : A_AC3
Duration                                 : 43 min 10 s
Bit rate mode                            : Constant
Bit rate                                 : 448 kb/s
Channel(s)                               : 6 channels
Channel positions                        : Front: L C R, Side: L R, LFE
Sampling rate                            : 48.0 kHz
Frame rate                               : 31.250 FPS (1536 SPF)
Bit depth                                : 16 bits
Compression mode                         : Lossy
Stream size                              : 138 MiB (14%)
Language                                 : English
Service kind                             : Complete Main
Default                                  : Yes
Forced                                   : No

Text
ID                                       : 3
Format                                   : VobSub
Codec ID                                 : S_VOBSUB
Codec ID/Info                            : Picture based subtitle format used on DVDs
Duration                                 : 41 min 55 s
Bit rate                                 : 12.5 kb/s
Count of elements                        : 728
Stream size                              : 3.74 MiB (0%)
Language                                 : English
Code:
https://rapidgator.net/file/8c910a9d6af3704e003d25e995ba22f9/Agents_of_SHIELD_S04_br_hevc-d3g_(remux).part01.rar.html
https://rapidgator.net/file/c25ec162cc7c3e9526564de5c4710137/Agents_of_SHIELD_S04_br_hevc-d3g_(remux).part02.rar.html
https://rapidgator.net/file/9506c3e2ff234200ed6decd844bcbbbb/Agents_of_SHIELD_S04_br_hevc-d3g_(remux).part03.rar.html
https://rapidgator.net/file/08da92a5d48c368861ca6bd9013323de/Agents_of_SHIELD_S04_br_hevc-d3g_(remux).part04.rar.html
https://rapidgator.net/file/c4a028f9904309a666f2e7e0fe7fcf01/Agents_of_SHIELD_S04_br_hevc-d3g_(remux).part05.rar.html
https://rapidgator.net/file/16c5b1690576a6c3837a6231ef850981/Agents_of_SHIELD_S04_br_hevc-d3g_(remux).part06.rar.html
https://rapidgator.net/file/533887ab284128f0eaf52676967a4121/Agents_of_SHIELD_S04_br_hevc-d3g_(remux).part07.rar.html
https://rapidgator.net/file/a9a4a30618796746f0cc5e3090685e21/Agents_of_SHIELD_S04_br_hevc-d3g_(remux).part08.rar.html
https://rapidgator.net/file/3e09f06ce46123663a66244c52dc35fc/Agents_of_SHIELD_S04_br_hevc-d3g_(remux).part09.rar.html
https://rapidgator.net/file/285fd561539216641b1c5e22b41ff4f3/Agents_of_SHIELD_S04_br_hevc-d3g_(remux).part10.rar.html
https://rapidgator.net/file/b4fe7770308733f53042b39286dd54b7/Agents_of_SHIELD_S04_br_hevc-d3g_(remux).part11.rar.html