Genre Adventure, Family, Fantasy
Actors Bill Nighy, Emma Watson, Richard Griffiths, Harry Melling, Daniel Radcliffe, Julie Walters, Bonnie Wright, Rupert Grint, Ian Kelly, Michelle Fairley, Fiona Shaw, Alan Rickman, Carolyn Pickles, Ralph Fiennes, Helena Bonham Carter
Plot As Harry races against time and evil to destroy the Horcruxes, he uncovers the existence of three most powerful objects in the wizarding world: the Deathly Hallows.

Code:
http://www.imdb.com/title/tt0926084/
Code:
Format                                   : Matroska
Format version                           : Version 4 / Version 2
File size                                : 5.11 GiB
Duration                                 : 2h 26mn
Overall bit rate                         : 5 011 Kbps
Encoded date                             : UTC 2016-05-20 19:09:54
Writing application                      : mkvmerge v9.1.0 ('Little Earthquakes') 64bit
Writing library                          : libebml v1.3.3 + libmatroska v1.4.4

Video
ID                                       : 1
Format                                   : AVC
Format/Info                              : Advanced Video Codec
Format profile                           : [email protected]
Format settings, CABAC                   : Yes
Format settings, ReFrames                : 5 frames
Codec ID                                 : V_MPEG4/ISO/AVC
Duration                                 : 2h 26mn
Bit rate                                 : 3 500 Kbps
Width                                    : 1 920 pixels
Height                                   : 804 pixels
Display aspect ratio                     : 2.40:1
Frame rate mode                          : Constant
Frame rate                               : 23.976 (24000/1001) fps
Color space                              : YUV
Chroma subsampling                       : 4:2:0
Bit depth                                : 8 bits
Scan type                                : Progressive
Bits/(Pixel*Frame)                       : 0.095
Stream size                              : 3.57 GiB (70%)
Writing library                          : x264 core 148 r2638 7599210
Encoding settings                        : cabac=1 / ref=5 / deblock=1:-2:-2 / analyse=0x3:0x133 / me=umh / subme=11 / psy=1 / psy_rd=1.00:0.25 / mixed_ref=1 / me_range=32 / chroma_me=1 / trellis=2 / 8x8dct=1 / cqm=0 / deadzone=21,11 / fast_pskip=0 / chroma_qp_offset=-4 / threads=12 / lookahead_threads=1 / sliced_threads=0 / nr=0 / decimate=1 / interlaced=0 / bluray_compat=0 / constrained_intra=0 / bframes=4 / b_pyramid=2 / b_adapt=2 / b_bias=0 / direct=3 / weightb=1 / open_gop=0 / weightp=2 / keyint=240 / keyint_min=23 / scenecut=40 / intra_refresh=0 / rc_lookahead=60 / rc=2pass / mbtree=1 / bitrate=3500 / ratetol=1.0 / qcomp=0.60 / qpmin=0 / qpmax=69 / qpstep=4 / cplxblur=20.0 / qblur=0.5 / ip_ratio=1.40 / aq=1:1.00
Default                                  : Yes
Forced                                   : No

Audio
ID                                       : 2
Format                                   : DTS
Format/Info                              : Digital Theater Systems
Mode                                     : 16
Format settings, Endianness              : Big
Codec ID                                 : A_DTS
Duration                                 : 2h 26mn
Bit rate mode                            : Constant
Bit rate                                 : 1 509 Kbps
Channel(s)                               : 6 channels
Channel positions                        : Front: L C R, Side: L R, LFE
Sampling rate                            : 48.0 KHz
Frame rate                               : 93.750 fps (512 spf)
Bit depth                                : 24 bits
Compression mode                         : Lossy
Stream size                              : 1.54 GiB (30%)
Title                                    : Surround Sound
Default                                  : Yes
Forced                                   : No
Code:
https://rapidgator.net/file/62f0a31c39305e1693470a5a684a9c68/Deathly.Hallows.Part.1.2010.1080p.BluRay.x264.DTS-ETRG.part1.rar.html
https://rapidgator.net/file/6fba953b12e3296fa5ea38731388a1ce/Deathly.Hallows.Part.1.2010.1080p.BluRay.x264.DTS-ETRG.part2.rar.html
https://rapidgator.net/file/07e95c29fea73e9804c3dd21414a886e/Deathly.Hallows.Part.1.2010.1080p.BluRay.x264.DTS-ETRG.part3.rar.html