Genre Adventure, Family, Fantasy
Actors Daniel Radcliffe, Michael Gambon, Dave Legeno, Elarica Johnson, Jim Broadbent, Geraldine Somerville, Bonnie Wright, Julie Walters, Rupert Grint, Emma Watson, Helena Bonham Carter, Helen McCrory, Timothy Spall, Alan Rickman, Oliver Phelps
Plot As Harry Potter begins his sixth year at Hogwarts, he discovers an old book marked as the property of the Half-Blood Prince and begins to learn more about Lord Voldemorts dark past.

Code:
http://www.imdb.com/title/tt0417741/
Code:
Format                                   : Matroska
Format version                           : Version 4 / Version 2
File size                                : 5.37 GiB
Duration                                 : 2h 33mn
Overall bit rate                         : 5 011 Kbps
Encoded date                             : UTC 2016-05-21 07:23:24
Writing application                      : mkvmerge v9.1.0 ('Little Earthquakes') 64bit
Writing library                          : libebml v1.3.3 + libmatroska v1.4.4

Video
ID                                       : 1
Format                                   : AVC
Format/Info                              : Advanced Video Codec
Format profile                           : [email protected]
Format settings, CABAC                   : Yes
Format settings, ReFrames                : 5 frames
Codec ID                                 : V_MPEG4/ISO/AVC
Duration                                 : 2h 33mn
Bit rate                                 : 3 500 Kbps
Width                                    : 1 920 pixels
Height                                   : 800 pixels
Display aspect ratio                     : 2.40:1
Frame rate mode                          : Constant
Frame rate                               : 23.976 (24000/1001) fps
Color space                              : YUV
Chroma subsampling                       : 4:2:0
Bit depth                                : 8 bits
Scan type                                : Progressive
Bits/(Pixel*Frame)                       : 0.095
Stream size                              : 3.75 GiB (70%)
Writing library                          : x264 core 148 r2638 7599210
Encoding settings                        : cabac=1 / ref=5 / deblock=1:-2:-2 / analyse=0x3:0x133 / me=umh / subme=11 / psy=1 / psy_rd=1.00:0.25 / mixed_ref=1 / me_range=32 / chroma_me=1 / trellis=2 / 8x8dct=1 / cqm=0 / deadzone=21,11 / fast_pskip=0 / chroma_qp_offset=-4 / threads=12 / lookahead_threads=1 / sliced_threads=0 / nr=0 / decimate=1 / interlaced=0 / bluray_compat=0 / constrained_intra=0 / bframes=4 / b_pyramid=2 / b_adapt=2 / b_bias=0 / direct=3 / weightb=1 / open_gop=0 / weightp=2 / keyint=240 / keyint_min=23 / scenecut=40 / intra_refresh=0 / rc_lookahead=60 / rc=2pass / mbtree=1 / bitrate=3500 / ratetol=1.0 / qcomp=0.60 / qpmin=0 / qpmax=69 / qpstep=4 / cplxblur=20.0 / qblur=0.5 / ip_ratio=1.40 / aq=1:1.00
Default                                  : Yes
Forced                                   : No

Audio
ID                                       : 2
Format                                   : DTS
Format/Info                              : Digital Theater Systems
Mode                                     : 16
Format settings, Endianness              : Big
Codec ID                                 : A_DTS
Duration                                 : 2h 33mn
Bit rate mode                            : Constant
Bit rate                                 : 1 509 Kbps
Channel(s)                               : 6 channels
Channel positions                        : Front: L C R, Side: L R, LFE
Sampling rate                            : 48.0 KHz
Frame rate                               : 93.750 fps (512 spf)
Bit depth                                : 16 bits
Compression mode                         : Lossy
Stream size                              : 1.62 GiB (30%)
Title                                    : Surround Sound
Language                                 : English
Default                                  : Yes
Forced                                   : No
Code:
https://rapidgator.net/file/9242b1034b37a93eb2a36f6c5b66ea29/Half.Blood.Prince.2009.1080p.BluRay.x264.DTS-ETRG.part1.rar.html
https://rapidgator.net/file/ae8b8e20abc149e1f535dacd968cbb5a/Half.Blood.Prince.2009.1080p.BluRay.x264.DTS-ETRG.part2.rar.html
https://rapidgator.net/file/12b4535dab8e6d4d127bdff9e5cfe069/Half.Blood.Prince.2009.1080p.BluRay.x264.DTS-ETRG.part3.rar.html
https://rapidgator.net/file/2485d6f2251a2c70df8ba80183ed8961/Half.Blood.Prince.2009.1080p.BluRay.x264.DTS-ETRG.part4.rar.html